Our Domain Has Changed to :- RDLinks.xyz
Use our new Domain https://www.rdlinks.xyz to access our website, we will soon redirect RDLinks.com to RDLinks.xyz .. Visit it by following the below Link.

Click Here

  1. Hi, If you like our releases and want to support us buy premium account using the below link.

    Click Here

Xx Return Of Xander Cage (2017) 720p Brrip [dual Audio] [org. Hindi+ English] Ac3 X264 By-rishibhai

Discussion in 'Dubbed Movies (Hollywood/South Dubbed)' started by RishiBhai, May 31, 2017.

  1. RishiBhai

    RishiBhai Super Mod

    [​IMG]

    Runtime:-1h 47min
    Genre:-Action, Adventure, Thriller
    Released:-20 January 2017 (USA)


    Plot:-Xander Cage is left for dead after an incident, though he secretly returns to action for a new, tough assignment with his handler Augustus Gibbons.

    Director: D.J. Caruso
    Writers: Rich Wilkes (based on characters created by), F. Scott Frazier
    Stars: Vin Diesel, Donnie Yen, Deepika Padukone


    Code:
    General
    Complete name : xXx Return of Xander Cage (2017) 720p BRRip [Dual Audio] [Org. Hindi + English] AC3 x264 Encoded By-RishiBhai-RDLinks.mkv
    Format : Matroska
    Format version : Version 4 / Version 2
    File size : 1.09 GiB
    Duration : 1 h 46 min
    Overall bit rate : 1 458 kb/s
    Movie name : Encoded By-RishiBhai-RDLinks
    Encoded date : UTC 2017-05-30 08:47:03
    Writing application : Lavf57.57.100
    Writing library : Lavf57.57.100 / Lavf57.57.100
    ErrorDetectionType : Per level 1
    
    Video
    ID : 1
    Format : AVC
    Format/Info : Advanced Video Codec
    Format profile : [email protected]
    Format settings, CABAC : Yes
    Format settings, ReFrames : 2 frames
    Codec ID : V_MPEG4/ISO/AVC
    Duration : 1 h 46 min
    Bit rate : 1 200 kb/s
    Width : 1 280 pixels
    Height : 536 pixels
    Display aspect ratio : 2.40:1
    Frame rate mode : Constant
    Frame rate : 23.976 (24000/1001) FPS
    Color space : YUV
    Chroma subsampling : 4:2:0
    Bit depth : 8 bits
    Scan type : Progressive
    Bits/(Pixel*Frame) : 0.073
    Stream size : 896 MiB (80%)
    Writing library : x264 core 148 r2721
    Encoding settings : cabac=1 / ref=2 / deblock=1:0:0 /
    
    analyse=0x1:0x131 / me=hex / subme=7 / psy=1 / psy_rd=1.00:0.00 / mixed_ref=0
    
    / me_range=16 / chroma_me=1 / trellis=1 / 8x8dct=0 / cqm=0 / deadzone=21,11 /
    
    fast_pskip=1 / chroma_qp_offset=-2 / threads=3 / lookahead_threads=1 /
    
    sliced_threads=0 / nr=0 / decimate=1 / interlaced=0 / bluray_compat=0 /
    
    constrained_intra=0 / bframes=3 / b_pyramid=0 / b_adapt=1 / b_bias=0 / direct=0
    
    / weightb=1 / open_gop=0 / weightp=2 / keyint=239 / keyint_min=23 /
    
    scenecut=40 / intra_refresh=0 / rc_lookahead=40 / rc=2pass / mbtree=1 /
    
    bitrate=1200 / ratetol=1.0 / qcomp=0.60 / qpmin=10 / qpmax=69 / qpstep=4 /
    
    cplxblur=20.0 / qblur=0.5 / vbv_maxrate=2000 / vbv_bufsize=24000 /
    
    nal_hrd=none / filler=0 / ip_ratio=1.40 / aq=3:1.00
    Language : English
    Default : Yes
    Forced : No
    DURATION : 01:46:46.275000000
    
    Audio #1
    ID : 2
    Format : AC-3
    Format/Info : Audio Coding 3
    Mode extension : CM (complete main)
    Format settings, Endianness : Big
    Codec ID : A_AC3
    Duration : 1 h 46 min
    Bit rate mode : Constant
    Bit rate : 128 kb/s
    Channel(s) : 2 channels
    Channel positions : Front: L R
    Sampling rate : 44.1 kHz
    Frame rate : 28.711 FPS (1536 spf)
    Bit depth : 16 bits
    Compression mode : Lossy
    Delay relative to video : 3 ms
    Stream size : 97.8 MiB (9%)
    Writing library : Lavc57.66.101 ac3_fixed
    Language : English
    Default : Yes
    Forced : No
    DURATION : 01:46:46.307000000
    
    Audio #2
    ID : 3
    Format : AC-3
    Format/Info : Audio Coding 3
    Mode extension : CM (complete main)
    Format settings, Endianness : Big
    Codec ID : A_AC3
    Duration : 1 h 46 min
    Bit rate mode : Constant
    Bit rate : 128 kb/s
    Channel(s) : 2 channels
    Channel positions : Front: L R
    Sampling rate : 48.0 kHz
    Frame rate : 31.250 FPS (1536 spf)
    Bit depth : 16 bits
    Compression mode : Lossy
    Delay relative to video : 4 ms
    Stream size : 97.8 MiB (9%)
    Writing library : Lavc57.66.101 ac3_fixed
    Language : Hindi
    Default : No
    Forced : No
    DURATION : 01:46:46.276000000
    
    Text
    ID : 4
    Format : UTF-8
    Codec ID : S_TEXT/UTF8
    Codec ID/Info : UTF-8 Plain Text
    Writing library : Lavc57.66.101 srt
    Language : English
    Default : Yes
    Forced : No
    DURATION : 01:39:51.200000000
    
    Screenshots:-

    [​IMG]

    [​IMG]

    [​IMG]

    [​IMG]

    [​IMG]

    Thanks to Invincible for Hindi Audio

    Direct Download Link:-
    Code:
    https://nl7.seedr.cc/downloads/9c2917cf095da21fb0f0ddc2078fadde17467844/xXx%20Return%20of%20Xander%20Cage%20(2017)%20720p%20BRRip%20[Dual%20Audio]%20[Org.%20Hindi%20%20English]%20AC3%20x264%20Encoded%20By-RishiBhai-RDLinks.mkv?st=5MD2iIRV_MnCe5QA1f0mMA&e=1496496043

     
    Mahmood007, Dennys91 and RDLinks like this.