Checkout Our Official Blog :- HDUltimate.com
HDUltimate is our Official Blog , Created for users to get easy downloading features and more.. Visit it by following the below Link.

Click Here

  1. Hi, If you like our releases and want to support us buy premium account using the below link.

    Click Here

War.for.the.planet.of.the.apes.2017.1080p.hc.hdrip.mkvcage

Discussion in 'Pay Per View/Download Releases' started by Iron-Man, Oct 2, 2017.

  1. Iron-Man

    Iron-Man Member

    [​IMG]


    INFO
    Format : Matroska
    Format version : Version 4 / Version 2
    File size : 2.23 GiB
    Duration : 2 h 18 min
    Overall bit rate : 2 301 kb/s
    Movie name : War.for.the.Planet.of.the.Apes.2017.1080p.HC.HDRip.MkvCage
    Encoded date : UTC 2017-10-02 03:19:40
    Writing application : mkvmerge v13.0.0 ('The Juggler') 32bit
    Writing library : libebml v1.3.4 + libmatroska v1.4.5

    Video
    ID : 2
    Format : AVC
    Format/Info : Advanced Video Codec
    Format profile : [email protected]
    Format settings, CABAC : Yes
    Format settings, RefFrames : 4 frames
    Codec ID : V_MPEG4/ISO/AVC
    Duration : 2 h 18 min
    Bit rate : 2 200 kb/s
    Width : 1 920 pixels
    Height : 1 080 pixels
    Display aspect ratio : 16:9
    Frame rate mode : Constant
    Frame rate : 30.000 FPS
    Color space : YUV
    Chroma subsampling : 4:2:0
    Bit depth : 8 bits
    Scan type : Progressive
    Bits/(Pixel*Frame) : 0.035
    Stream size : 2.13 GiB (96%)
    Writing library : x264 core 133 r2334 a3ac64b
    Encoding settings : cabac=1 / ref=4 / deblock=1:-1:-1 / analyse=0x3:0x113 / me=umh / subme=8 / psy=1 / psy_rd=1.00:0.00 / mixed_ref=1 / me_range=16 / chroma_me=1 / trellis=1 / 8x8dct=1 / cqm=0 / deadzone=21,11 / fast_pskip=1 / chroma_qp_offset=-2 / threads=48 / lookahead_threads=8 / sliced_threads=0 / nr=0 / decimate=1 / interlaced=0 / bluray_compat=0 / constrained_intra=0 / bframes=3 / b_pyramid=2 / b_adapt=2 / b_bias=0 / direct=3 / weightb=1 / open_gop=0 / weightp=2 / keyint=300 / keyint_min=30 / scenecut=40 / intra_refresh=0 / rc_lookahead=50 / rc=2pass / mbtree=1 / bitrate=2200 / ratetol=1.0 / qcomp=0.60 / qpmin=10 / qpmax=51 / qpstep=4 / cplxblur=20.0 / qblur=0.5 / vbv_maxrate=62500 / vbv_bufsize=78125 / nal_hrd=none / ip_ratio=1.40 / aq=1:1.00
    Default : Yes
    Forced : No

    Audio
    ID : 1
    Format : AAC
    Format/Info : Advanced Audio Codec
    Format profile : HE-AAC / LC
    Codec ID : A_AAC
    Duration : 2 h 18 min
    Bit rate : 100.0 kb/s
    Channel(s) : 2 channels
    Channel positions : Front: L R
    Sampling rate : 48.0 kHz / 24.0 kHz
    Frame rate : 23.438 FPS (1024 SPF)
    Compression mode : Lossy
    Delay relative to video : 31 ms
    Stream size : 99.3 MiB (4%)
    Language : English
    Default : Yes
    Forced : No

    Text
    ID : 3
    Format : UTF-8
    Codec ID : S_TEXT/UTF8
    Codec ID/Info : UTF-8 Plain Text
    Duration : 2 h 10 min
    Bit rate : 16 b/s
    Count of elements : 628
    Stream size : 16.2 KiB (0%)
    Language : English
    Default : Yes
    Forced : No


    SCREENSHOTS
    [​IMG]

    Please login or register to view links