Checkout Our Official Blog :- HDUltimate.com
HDUltimate is our Official Blog , Created for users to get easy downloading features and more.. Visit it by following the below Link.

Click Here

  1. Hi, If you like our releases and want to support us buy premium account using the below link.

    Click Here

M.S. Dhoni The Untold Story (2016) 720p BDRip x264 5.1Ch Esubs Encoded By-RishiBhai

Discussion in '720p &1080p BluRay' started by RishiBhai, Jan 25, 2017.

  1. RishiBhai

    RishiBhai Super Mod

    [​IMG]

    IMDB:-8/10

    Code:
    General
    Unique ID                                : 99118589417018637702213086084183142246 
    
    (0x4A918BC2BF7185E2C990985694A8AF66)
    Complete name                            : E:\M.S. Dhoni The Untold Story (2016) 720p BDRip x264 
    
    5.1Ch Esubs Encoded By-RishiBhai[TeamRDLinks]\M.S. Dhoni The Untold Story (2016) 720p 
    
    BDRip x264 5.1Ch Esubs Encoded By-RishiBhai[TeamRDLinks].mkv
    Format                                   : Matroska
    Format version                           : Version 4 / Version 2
    File size                                : 1.87 GiB
    Duration                                 : 3 h 4 min
    Overall bit rate                         : 1 452 kb/s
    Movie name                               : Encoded By-RishiBhai[TeamRDLinks]-www.rdlinks.com
    Encoded date                             : UTC 2017-01-17 04:32:12
    Writing application                      : Lavf57.57.100
    Writing library                          : Lavf57.57.100 / Lavf57.57.100
    ErrorDetectionType                       : Per level 1
    
    Video
    ID                                       : 1
    Format                                   : AVC
    Format/Info                              : Advanced Video Codec
    Format profile                           : [email protected]
    Format settings, CABAC                   : Yes
    Format settings, ReFrames                : 2 frames
    Codec ID                                 : V_MPEG4/ISO/AVC
    Duration                                 : 3 h 4 min
    Bit rate                                 : 1 039 kb/s
    Width                                    : 1 280 pixels
    Height                                   : 720 pixels
    Display aspect ratio                     : 2.35:1
    Frame rate mode                          : Constant
    Frame rate                               : 24.000 FPS
    Color space                              : YUV
    Chroma subsampling                       : 4:2:0
    Bit depth                                : 8 bits
    Scan type                                : Progressive
    Bits/(Pixel*Frame)                       : 0.047
    Stream size                              : 1.34 GiB (72%)
    Writing library                          : x264 core 148 r2721
    Encoding settings                        : cabac=1 / ref=2 / deblock=1:0:0 / analyse=0x1:0x131 / 
    
    me=hex / subme=7 / psy=1 / psy_rd=1.00:0.00 / mixed_ref=0 / me_range=16 / chroma_me=1 / 
    
    trellis=1 / 8x8dct=0 / cqm=0 / deadzone=21,11 / fast_pskip=1 / chroma_qp_offset=-2 / 
    
    threads=3 / lookahead_threads=1 / sliced_threads=0 / nr=0 / decimate=1 / interlaced=0 / 
    
    bluray_compat=0 / constrained_intra=0 / bframes=3 / b_pyramid=0 / b_adapt=1 / b_bias=0 / 
    
    direct=0 / weightb=1 / open_gop=0 / weightp=2 / keyint=240 / keyint_min=24 / scenecut=40 / 
    
    intra_refresh=0 / rc_lookahead=40 / rc=crf / mbtree=1 / crf=28.0 / qcomp=0.60 / qpmin=10 / 
    
    qpmax=69 / qpstep=4 / vbv_maxrate=2000 / vbv_bufsize=24000 / crf_max=0.0 / 
    
    nal_hrd=none / filler=0 / ip_ratio=1.40 / aq=3:1.00
    Default                                  : Yes
    Forced                                   : No
    DURATION                                 : 03:04:40.548000000
    
    Audio
    ID                                       : 2
    Format                                   : AC-3
    Format/Info                              : Audio Coding 3
    Mode extension                           : CM (complete main)
    Format settings, Endianness              : Big
    Codec ID                                 : A_AC3
    Duration                                 : 3 h 4 min
    Bit rate mode                            : Constant
    Bit rate                                 : 384 kb/s
    Channel(s)                               : 6 channels
    Channel positions                        : Front: L C R, Side: L R, LFE
    Sampling rate                            : 44.1 kHz
    Frame rate                               : 28.711 FPS (1536 spf)
    Bit depth                                : 16 bits
    Compression mode                         : Lossy
    Stream size                              : 507 MiB (26%)
    Writing library                          : Lavc57.66.101 ac3_fixed
    Language                                 : Hindi
    Default                                  : Yes
    Forced                                   : No
    DURATION                                 : 03:04:40.516000000
    
    Text
    ID                                       : 3
    Format                                   : PGS
    Codec ID                                 : S_HDMV/PGS
    Codec ID/Info                            : Picture based subtitle format used on BDs/HD-DVDs
    Language                                 : English
    Default                                  : Yes
    Forced                                   : No
    DURATION                                 : 02:59:22.256000000
    
    Screenshots:-

    [​IMG]
    [​IMG]
    [​IMG]
    [​IMG]
    [​IMG]
    [​IMG]

    Source Credits:-DDR
     
    RAJESH UBBAPALLY likes this.
  2. msdhonimahi

    msdhonimahi Member

    How to download...broo