Our Domain Has Changed to :- RDLinks.xyz
Use our new Domain https://www.rdlinks.xyz to access our website, we will soon redirect RDLinks.com to RDLinks.xyz .. Visit it by following the below Link.

Click Here

  1. Hi, If you like our releases and want to support us buy premium account using the below link.

    Click Here

Inferno (2016) Telugu Dubbed 720p Bluray X264 Dd5.1 Esubs Rdlinks

Discussion in 'Dubbed Movies (Hollywood/South Dubbed)' started by Dennys91, Jul 7, 2017.

  1. Dennys91

    Dennys91 Super Mod VIP

    [​IMG]
    General

    Format : Matroska
    Format version : Version 4 / Version 2
    File size : 1.35 GiB
    Duration : 2 h 1 min
    Overall bit rate : 1 589 kb/s
    Movie name : Register in Please login or register to view links for more releases
    Encoded date : UTC 2017-07-07 16:56:03
    Writing application : mkvmerge v7.9.0 ('Birds') 64bit
    Writing library : libebml v1.3.1 + libmatroska v1.4.2

    Video

    Format : AVC
    Format/Info : Advanced Video Codec
    Format profile : [email protected]
    Format settings, CABAC : Yes
    Format settings, ReFrames : 9 frames
    Codec ID : V_MPEG4/ISO/AVC
    Duration : 2 h 1 min
    Bit rate : 1 140 kb/s
    Width : 1 280 pixels
    Height : 694 pixels
    Display aspect ratio : 1.85:1
    Frame rate mode : Constant
    Frame rate : 23.976 (24000/1001) FPS
    Color space : YUV
    Chroma subsampling : 4:2:0
    Bit depth : 8 bits
    Scan type : Progressive
    Bits/(Pixel*Frame) : 0.054
    Stream size : 991 MiB (72%)

    Audio

    Format : AC-3
    Format/Info : Audio Coding 3
    Format settings, Endianness : Big
    Codec ID : A_AC3
    Duration : 2 h 1 min
    Bit rate mode : Constant
    Bit rate : 448 kb/s
    Channel(s) : 6 channels
    Channel positions : Front: L C R, Side: L R, LFE
    Sampling rate : 48.0 kHz
    Frame rate : 31.250 FPS (1536 spf)
    Bit depth : 16 bits
    Compression mode : Lossy
    Stream size : 390 MiB (28%)
    Service kind : Complete Main
    Default : Yes
    Forced : Yes

    Text

    Format : UTF-8
    Codec ID : S_TEXT/UTF8
    Codec ID/Info : UTF-8 Plain Text
    Duration : 1 h 55 min
    Bit rate : 55 b/s
    Count of elements : 1360
    Stream size : 46.9 KiB (0%)
    Language : English

    [​IMG]
    [​IMG]
    [​IMG]

    Audio Only :

    Hidden Content:
    You must reply before you can see the hidden data contained here.
    DOWNLOAD :-
    Hidden Content:
    You must reply before you can see the hidden data contained here.

    [​IMG]
     
    Last edited by a moderator: Jul 8, 2017
    shravas, Aman1979, [HK] and 1 other person like this.
  2. Druken King

    Druken King Member

    Thanks for untouched audio
     
    viswanath82 likes this.
  3. RDLinks

    RDLinks Administrator

  4. raju_ga153

    raju_ga153 Member

    Thank you very much...
     
  5. plnaicwai

    plnaicwai Member

    thanks for the excellent Telugu post
     
  6. asn.ganesh

    asn.ganesh Member

  7. ajaykrissh5

    ajaykrissh5 Member

    really really aswome
     
  8. anilduvvada

    anilduvvada Member

    Thanks for the movie
     
  9. lucky_lucky

    lucky_lucky Member

    Thanks You!!!!!!!!!!!!
     
  10. Thanks for untouched audio
     
  11. jagadeesh434

    jagadeesh434 Member

    put the direct torrent link please
     
  12. dvhbr

    dvhbr Member

  13. i am waiting for this movie for long time
     
  14. stephen

    stephen Member

    wonderful work