Checkout Our Official Blog :- HDUltimate.com
HDUltimate is our Official Blog , Created for users to get easy downloading features and more.. Visit it by following the below Link.

Click Here

  1. Hi, If you like our releases and want to support us buy premium account using the below link.

    Click Here

Direct Baby Driver 2017 2160p 4k Uhd Hdr Bluray X265 Dts Dts 7 1 Eng Fr -hdrinvasion

Discussion in 'UHD - 4K' started by Dennys91, Oct 12, 2017.

  1. Dennys91

    Dennys91 Super Mod VIP

    [​IMG]
    IMDB : Please login or register to view links
    Format : Matroska
    Format version : Version 4 / Version 2
    File size : 29.0 GiB
    Duration : 1 h 52 min
    Overall bit rate : 36.9 Mb/s
    Encoded date : UTC 2017-10-11 07:43:15
    Writing application : mkvmerge v14.0.0 ('Flow') 64bit
    Writing library : libebml v1.3.4 + libmatroska v1.4.5

    Video
    ID : 1
    Format : HEVC
    Format/Info : High Efficiency Video Coding
    Format profile : Main [email protected]@High
    Codec ID : V_MPEGH/ISO/HEVC
    Duration : 1 h 29 min
    Bit rate : 31.4 Mb/s
    Width : 3 840 pixels
    Height : 2 160 pixels
    Display aspect ratio : 16:9
    Frame rate mode : Constant
    Frame rate : 23.976 (24000/1001) FPS
    Color space : YUV
    Default : Yes
    Forced : No
    Color range : Limited
    Color primaries : BT.2020

    Audio #1
    ID : 2
    Format : PCM
    Codec ID : A_PCM/INT/LIT
    Duration : 1 h 52 min
    Bit rate mode : Constant
    Bit rate : 9 216 kb/s
    Channel(s) : 8 channels
    Sampling rate : 48.0 kHz
    Frame rate : 32.000 FPS (1500 SPF)
    Bit depth : 24 bits
    Stream size : 7.24 GiB (25%)
    Title : Truehd 7.1 (only works in MPCHC) swap FC w/ LF channel
    Language : English

    Audio #2
    ID : 3
    Format : DTS
    Format/Info : Digital Theater Systems
    Format profile : MA / Core
    Mode : 16
    Format settings, Endianness : Big
    Codec ID : A_DTS
    Duration : 1 h 52 min
    Bit rate mode : Variable / Constant
    Bit rate : 2 352 kb/s / 1 509 kb/s
    Channel(s) : 6 channels
    Channel positions : Front: L C R, Side: L R, LFE
    Sampling rate : 48.0 kHz
    Frame rate : 93.750 FPS (512 SPF)
    Bit depth : 16 bits
    Compression mode : Lossless / Lossy
    Stream size : 1.85 GiB (6%)
    Language : English

    Text #1
    ID : 4
    Format : PGS
    Muxing mode : zlib
    Codec ID : S_HDMV/PGS
    Codec ID/Info : Picture based subtitle format used on BDs/HD-DVDs
    Duration : 1 h 51 min
    Bit rate : 64.0 kb/s
    Count of elements : 4334
    Stream size : 51.2 MiB (0%)
    Language : English
    Default : Yes

    Text #2
    ID : 5
    Format : PGS
    Muxing mode : zlib
    Codec ID : S_HDMV/PGS
    Codec ID/Info : Picture based subtitle format used on BDs/HD-DVDs
    Duration : 1 h 49 min
    Bit rate : 44.0 kb/s
    Count of elements : 3110
    Stream size : 34.7 MiB (0%)
    Language : English
    Default : No

    Text #3
    ID : 6
    Format : PGS
    Muxing mode : zlib
    Codec ID : S_HDMV/PGS
    Codec ID/Info : Picture based subtitle format used on BDs/HD-DVDs
    Duration : 1 h 51 min
    Bit rate : 28.8 kb/s
    Count of elements : 2726
    Stream size : 23.0 MiB (0%)
    Language : Chinese
    Default : No
    Forced : No

    Text #4

    Format : PGS
    Muxing mode : zlib
    Codec ID : S_HDMV/PGS
    Codec ID/Info : Picture based subtitle format used on BDs/HD-DVDs
    Duration : 1 h 51 min
    Bit rate : 28.3 kb/s
    Count of elements : 2759
    Stream size : 22.6 MiB (0%)
    Language : Chinese

    Text #5

    Format : PGS
    Muxing mode : zlib
    Codec ID : S_HDMV/PGS
    Codec ID/Info : Picture based subtitle format used on BDs/HD-DVDs
    Duration : 1 h 38 min
    Bit rate : 1 015 b/s
    Count of elements : 100
    Stream size : 735 KiB (0%)
    Language : French
    Default : No
    Forced : No

    Text #6

    Format : PGS
    Muxing mode : zlib
    Codec ID : S_HDMV/PGS
    Codec ID/Info : Picture based subtitle format used on BDs/HD-DVDs
    Duration : 1 h 50 min
    Bit rate : 31.9 kb/s
    Count of elements : 2674
    Stream size : 25.1 MiB (0%)
    Language : French

    Text #7

    Format : PGS
    Muxing mode : zlib
    Codec ID : S_HDMV/PGS
    Codec ID/Info : Picture based subtitle format used on BDs/HD-DVDs
    Duration : 1 h 51 min
    Bit rate : 29.2 kb/s
    Count of elements : 2772
    Stream size : 23.3 MiB (0%)
    Language : Chinese

    Text #8

    Format : PGS
    Muxing mode : zlib
    Codec ID : S_HDMV/PGS
    Codec ID/Info : Picture based subtitle format used on BDs/HD-DVDs
    Duration : 1 h 51 min
    Bit rate : 25.6 kb/s
    Count of elements : 2716
    Stream size : 20.5 MiB (0%)
    Language : Korean

    Text #9

    Format : PGS
    Muxing mode : zlib
    Codec ID : S_HDMV/PGS
    Codec ID/Info : Picture based subtitle format used on BDs/HD-DVDs
    Duration : 1 h 51 min
    Bit rate : 37.8 kb/s
    Count of elements : 2656
    Stream size : 30.3 MiB (0%)
    Language : Spanish

    Text #10

    Format : PGS
    Muxing mode : zlib
    Codec ID : S_HDMV/PGS
    Codec ID/Info : Picture based subtitle format used on BDs/HD-DVDs
    Duration : 1 h 51 min
    Bit rate : 26.5 kb/s
    Count of elements : 2752
    Stream size : 21.2 MiB (0%)
    Language : Thai

    Text #11

    Format : PGS
    Muxing mode : zlib
    Codec ID : S_HDMV/PGS
    Codec ID/Info : Picture based subtitle format used on BDs/HD-DVDs
    Duration : 1 h 52 min
    Bit rate : 52.5 kb/s
    Count of elements : 3668
    Stream size : 42.2 MiB (0%)
    Language : Chinese

    DOWNLOAD Links
    Please login or register to view links

    [​IMG]
     
  2. gexx

    gexx Member

    nice movie but after you extract anp play the release freezes around the 1:47 around there and it wont continue,,please check the release i tried and extracted it 3 times samething..thank you for the upload