Checkout Our Official Blog :- HDUltimate.com
HDUltimate is our Official Blog , Created for users to get easy downloading features and more.. Visit it by following the below Link.

Click Here

  1. Hi, If you like our releases and want to support us buy premium account using the below link.

    Click Here

Direct Baahubali The Lost Legends S1.e6 (2017) The Legend Of Katappa 1080p [telugu]510 Mb-rdlinks.com

Discussion in 'Telugu' started by Dennys91, Jun 15, 2017.

  1. Dennys91

    Dennys91 Super Mod VIP

    [​IMG]

    General

    Format : MPEG-4
    Format profile : Base Media / Version 2
    Codec ID : mp42 (mp42/isom)
    File size : 510 MiB
    Duration : 20 min 16 s
    Overall bit rate mode : Variable
    Overall bit rate : 3 519 kb/s
    Encoded date : UTC 2017-06-15 19:08:28
    Tagged date : UTC 2017-06-15 19:28:45

    Video

    Format : AVC
    Format/Info : Advanced Video Codec
    Format profile : [email protected]
    Format settings, CABAC : Yes
    Format settings, ReFrames : 1 frame
    Codec ID : avc1
    Codec ID/Info : Advanced Video Coding
    Duration : 20 min 16 s
    Bit rate : 3 364 kb/s
    Width : 1 914 pixels
    Height : 1 040 pixels
    Display aspect ratio : 1.85:1
    Frame rate mode : Variable
    Frame rate : 24.127 FPS
    Minimum frame rate : 4.167 FPS
    Maximum frame rate : 25.000 FPS
    Original frame rate : 25.000 FPS
    Color space : YUV
    Chroma subsampling : 4:2:0
    Bit depth : 8 bits
    Scan type : Progressive
    Bits/(Pixel*Frame) : 0.070
    Stream size : 488 MiB (96%)
    Writing library : x264 core 148 r2694bm 3b70645

    Audio

    Format : AAC
    Format/Info : Advanced Audio Codec
    Format profile : LC
    Codec ID : 40
    Duration : 20 min 16 s
    Bit rate mode : Variable
    Bit rate : 152 kb/s
    Maximum bit rate : 201 kb/s
    Channel(s) : 2 channels
    Channel positions : Front: L R
    Sampling rate : 44.1 kHz
    Frame rate : 43.066 FPS (1024 spf)
    Compression mode : Lossy
    Stream size : 22.0 MiB (4%)
    Encoded date : UTC 2017-06-15 19:08:28
    Tagged date : UTC 2017-06-15 19:28:45

    [​IMG]
    [​IMG]
    [​IMG]
    [​IMG]
    [​IMG]

    DOWNLOAD

    Hidden Content:
    You must reply before you can see the hidden data contained here.
     
    Chethan and midnight like this.
  2. discoverme

    discoverme Member

    Thank you for the post...
     
  3. rajesh

    rajesh Member

    Super denniyes i love you thanq for the fast update
     
  4. midnight

    midnight Member

    Thank you very very much for this great upload.
     
  5. Ramu7050

    Ramu7050 Member

    Is This In hindi
     
  6. Nani436

    Nani436 Member

    Thank you for this post
     
  7. vishwam27

    vishwam27 Member

    sorry to say there is no media files on that link