Our Domain Has Changed to :- RDLinks.xyz
Use our new Domain https://www.rdlinks.xyz to access our website, we will soon redirect RDLinks.com to RDLinks.xyz .. Visit it by following the below Link.

Click Here

  1. Hi, If you like our releases and want to support us buy premium account using the below link.

    Click Here

Direct Baahubali The Lost Legends S1.e2 (2017) The Royal Visit 1080p [telugu]450mb-rdlinks.com

Discussion in 'Telugu' started by Dennys91, May 19, 2017.

  1. Dennys91

    Dennys91 Super Mod VIP

    [​IMG]
    General

    Format : MPEG-4
    Format profile : Base Media / Version 2
    Codec ID : mp42 (mp42/isom)
    File size : 451 MiB
    Duration : 23 min 48 s
    Overall bit rate mode : Variable
    Overall bit rate : 2 647 kb/s
    Encoded date : UTC 2017-05-19 10:13:15
    Tagged date : UTC 2017-05-19 10:37:03

    Video

    Format : AVC
    Format/Info : Advanced Video Codec
    Format profile : [email protected]
    Format settings, CABAC : Yes
    Format settings, ReFrames : 1 frame
    Codec ID : avc1
    Codec ID/Info : Advanced Video Coding
    Duration : 23 min 48 s
    Bit rate : 2 492 kb/s
    Width : 1 914 pixels
    Height : 1 026 pixels
    Display aspect ratio : 1.85:1
    Frame rate mode : Variable
    Frame rate : 24.839 FPS
    Minimum frame rate : 8.333 FPS
    Maximum frame rate : 25.000 FPS
    Original frame rate : 25.000 FPS
    Color space : YUV
    Chroma subsampling : 4:2:0
    Bit depth : 8 bits
    Scan type : Progressive
    Bits/(Pixel*Frame) : 0.051
    Stream size : 424 MiB (94%)
    Writing library : x264 core 148 r2694bm 3b70645


    Audio

    Format : AAC
    Format/Info : Advanced Audio Codec
    Format profile : LC
    Codec ID : 40
    Duration : 23 min 48 s
    Bit rate mode : Variable
    Bit rate : 152 kb/s
    Maximum bit rate : 223 kb/s
    Channel(s) : 2 channels
    Channel positions : Front: L R
    Sampling rate : 44.1 kHz
    Frame rate : 43.066 FPS (1024 spf)
    Compression mode : Lossy
    Stream size : 25.9 MiB (6%)
    Encoded date : UTC 2017-05-19 10:13:15
    Tagged date : UTC 2017-05-19 10:37:03

    [​IMG]
    [​IMG]
    [​IMG]
    [​IMG]
    [​IMG]

    DOWNLOAD :-
    Hidden Content:
    You must reply before you can see the hidden data contained here.
     
  2. Vijaykr

    Vijaykr Member

    nice
     
  3. freak

    freak Member

  4. lean001

    lean001 Member

    hii
    nice one bro
     
  5. RDLinks

    RDLinks Administrator

  6. plnaicwai

    plnaicwai Member

    awesome post and waiting for it
     
  7. yalo

    yalo Member

    I really want to see)
     
  8. ncrakbar

    ncrakbar Member

    thanks
     
    Last edited by a moderator: May 21, 2017
  9. khajalove143

    khajalove143 Member

    nice post admin.........................................
     
  10. hi