Checkout Our Official Blog :- HDUltimate.com
HDUltimate is our Official Blog , Created for users to get easy downloading features and more.. Visit it by following the below Link.

Click Here

  1. Hi, If you like our releases and want to support us buy premium account using the below link.

    Click Here

Attack 2016 Untouched 1080p Webhd -rdlinks.com

Discussion in 'Telugu Movies' started by Dennys91, Jun 15, 2017.

  1. Dennys91

    Dennys91 Super Mod VIP


    [​IMG]
    General

    Format : MPEG-4
    Format profile : Base Media / Version 2
    Codec ID : mp42 (mp42/isom)
    File size : 3.41 GiB
    Duration : 1 h 41 min
    Overall bit rate mode : Variable
    Overall bit rate : 4 826 kb/s
    Encoded date : UTC 2017-06-15 11:27:11
    Tagged date : UTC 2017-06-15 13:08:28

    Video

    Format : AVC
    Format/Info : Advanced Video Codec
    Format profile : [email protected]
    Format settings, CABAC : Yes
    Format settings, ReFrames : 1 frame
    Codec ID : avc1
    Codec ID/Info : Advanced Video Coding
    Duration : 1 h 41 min
    Bit rate : 4 671 kb/s
    Width : 1 914 pixels
    Height : 812 pixels
    Display aspect ratio : 2.35:1
    Frame rate mode : Variable
    Frame rate : 23.369 FPS
    Minimum frame rate : 6.250 FPS
    Maximum frame rate : 25.000 FPS
    Original frame rate : 25.000 FPS
    Color space : YUV
    Chroma subsampling : 4:2:0
    Bit depth : 8 bits
    Scan type : Progressive
    Bits/(Pixel*Frame) : 0.129
    Stream size : 3.30 GiB (97%)
    Writing library : x264 core 148 r2694bm 3b70645

    Audio

    Format : AAC
    Format/Info : Advanced Audio Codec
    Format profile : LC
    Codec ID : 40
    Duration : 1 h 41 min
    Bit rate mode : Variable
    Bit rate : 152 kb/s
    Maximum bit rate : 229 kb/s
    Channel(s) : 2 channels
    Channel positions : Front: L R
    Sampling rate : 44.1 kHz
    Frame rate : 43.066 FPS (1024 spf)
    Compression mode : Lossy
    Stream size : 110 MiB (3%)

    Please login or register to view links

    Please login or register to view links

    Please login or register to view links

    Please login or register to view links

    Please login or register to view links

    Please login or register to view links

    Please login or register to view links

    Please login or register to view links

    Please login or register to view links

    DOWNLOAD :-

    Hidden Content:
    You must reply before you can see the hidden data contained here.
     
  2. sohail505

    sohail505 Member

  3. himaja

    himaja Elite Member

    how do I download ?
     
  4. adity

    adity Team RDLinks

    It is easy to remove the watermark...press inspect element and backspace the logo bro
     
  5. jeevan

    jeevan Member

    thank for the movie
     
  6. ram04081987

    ram04081987 Member

    thanks bro please add torrent for comings
     
  7. kramcharan

    kramcharan Member

    thanks for shareing............
     
  8. mahe

    mahe Member

  9. plnaicwai

    plnaicwai Member

    awesomeshare I am waiting for this
     
  10. pnandam

    pnandam Member

    thanks for the sharing